背景音乐

天使动漫论坛 - 梦开始的地方

查看: 1039|回复: 147

[LIVE] [BD.GD]「少女☆歌劇 レヴュースタァライト」2ndスタァライブ “Starry Desert”[BDRip][有压制6.17G][亲传自抓自购][42.4G] [复制链接]

美东矿业/ssysm
ssysm/美东矿业

梦幻天使
UID:1859035
精华:0
主题:3
帖子:15
威望:1496
天使币:5766
宣传度:190
天然°:146
腹黑°:146
精灵:11
豚金:0
阅读权限:130
注册时间:2019-4-25
来自:纽约市
状态: 不在线

  • TA的每日心情
    开心

    签到天数: 10天[LV.3]偶尔看看II

  • 美东矿业/ssysm 发表于 2019-4-27 13:14:00 |显示全部楼层
    本帖最后由 美东矿业/ssysm 于 2019-4-27 00:33 编辑

    [BD.GD]「少女☆歌劇 レヴュースタァライト」2ndスタァライブ “Starry Desert”[BDRip][有压制][亲传自抓自购][42.4G]/已压[6.17G]



    2018年12月22日、パシフィコ横浜 国立大ホールにて行われた
    「少女☆歌劇 レヴュースタァライト」2ndスタァライブ"Starry Desert"がBlu-rayで映像化!
    TVアニメ「少女☆歌劇 レヴュースタァライト」から生まれたユニット「スタァライト九九組」の2ndライブ映像!
    アニメで好評を博した「レヴュー曲」を全曲披露した圧巻のライブを全編収録!
    さらに特典映像にはアプリゲーム「少女☆歌劇 レヴュースタァライト ?Re LIVE-」内のユニット
    「シークフェルト音楽学院」のオープニングアクトや本ライブのメイキング映像「Documentary of "Starry Desert"」、
    さらに「恋の魔球」舞台映像「恋のベーラン」の他、レヴュー曲パートの俯瞰定点映像も収録予定!

    Performed by スタァライト九九組
    小山百代(as 愛城華恋)
    三森すずこ(as神楽ひかり)
    富田麻帆(as天堂真矢)
    佐藤日向(as星見純那)
    岩田陽葵(as露崎まひる)
    小泉萌香(as大場なな)
    相羽あいな(as西條クロディーヌ)
    生田 輝(as石動双葉)
    伊藤彩沙(as花柳香子)


    【収録内容】
    M1.星のダイアローグ
    M2.よろしく九九組
    M3.舞台プレパレイション
    M4.恋は太陽 ?CIRCUS! ?
    M5.My friend ~Arrie~
    M6.you are a ghost, I am a ghost
    ~劇場のゴースト~
    M7.Fly me to the star
    M8.ロマンティッククルージン
    M9.ディスカバリー!
    M10.世界を灰にするまで
    M11.The Star Knows
    M12.誇りと驕り
    M13.恋の魔球
    M14.花咲か唄
    M15.RE:CREATE
    M16.星々の絆
    M17.-Star Divine- フィナーレ
    M18.舞台少女心得 幕間
    M19.スタァライト
    M20.星のダイアローグ 12話Ver

    <ENCORE>
    EN1.願いは光になって
    EN2.約束タワー
    EN3.スタァライトシアター

    【仕様】
    ・三方背BOX仕様
    ・16P特製ブックレット

    【特典映像】
    ・オープニングアクト【出演:シークフェルト音楽学院】
    ・「恋の魔球」舞台映像「恋のベーラン」 出演:小山百代
    ・レヴュー曲パート 俯瞰定点映像
    ・2ndスタァライブ メイキング映像「Documentary of "Starry Desert"」


    [発売元]
    ポニーキャニオン

    [クレジット]
    (C)Project Revue Starlight




    游客,如果您要查看本帖隐藏内容请回复(Vistor, reply to read the hidden content.) (ゲスト様、隠れた内容を読むためには、文章に返信してください。)



    General Unique ID                                : 293312170189498446041824200422605704774 (0xDCA9DE81688F3A6239DD79B388E7CE46) Complete name                            : D:\Torrent Seed\[BDrip]「少女☆歌劇 レヴュースタァライト」2ndスタァライブ “Starry Desert”\「少女☆歌劇 レヴュースタァライト」2ndスタァライブ “Starry Desert”_t00.mkv Format                                   : Matroska Format version                           : Version 2 File size                                : 2.20 GiB Duration                                 : 19 min 17 s Overall bit rate mode                    : Variable Overall bit rate                         : 16.3 Mb/s Movie name                               : 「少女☆歌劇 レヴュースタァライト」2ndスタァライブ “Starry Desert” Encoded date                             : UTC 2019-04-22 23:25:54 Writing application                      : MakeMKV v1.14.3 win(x64-release) Writing library                          : libmakemkv v1.14.3 (1.3.5/1.4.7) win(x64-release)  Video ID                                       : 1 ID in the original source medium         : 4113 (0x1011) Format                                   : AVC Format/Info                              : Advanced Video Codec Format profile                           : High@L4.1 Format settings                          : CABAC / 4 Ref Frames Format settings, CABAC                   : Yes Format settings, Reference frames        : 4 frames Codec ID                                 : V_MPEG4/ISO/AVC Duration                                 : 19 min 17 s Bit rate mode                            : Variable Bit rate                                 : 14.8 Mb/s Maximum bit rate                         : 39.0 Mb/s Width                                    : 1 920 pixels Height                                   : 1 080 pixels Display aspect ratio                     : 16:9 Frame rate mode                          : Constant Frame rate                               : 23.976 (24000/1001) FPS Color space                              : YUV Chroma subsampling                       : 4:2:0 Bit depth                                : 8 bits Scan type                                : Progressive Bits/(Pixel*Frame)                       : 0.297 Stream size                              : 1.99 GiB (91%) Language                                 : English Default                                  : No Forced                                   : No Original source medium                   : Blu-ray  Audio ID                                       : 2 ID in the original source medium         : 4352 (0x1100) Format                                   : PCM Format settings                          : Little / Signed Codec ID                                 : A_PCM/INT/LIT Duration                                 : 19 min 17 s Bit rate mode                            : Constant Bit rate                                 : 1 536 kb/s Channel(s)                               : 2 channels Sampling rate                            : 48.0 kHz Frame rate                               : 30.001 FPS (1600 SPF) Bit depth                                : 16 bits Stream size                              : 212 MiB (9%) Title                                    : Stereo Language                                 : Japanese Default                                  : Yes Forced                                   : No Original source medium                   : Blu-ray  Menu 00:00:00.000                             : ja:Chapter 01 00:00:41.541                             : ja:Chapter 02 00:05:58.983                             : ja:Chapter 03 00:12:07.852                             : ja:Chapter 04 00:16:35.744                             : ja:Chapter 05 00:19:16.572                             : ja:Chapter 06  General Unique ID                                : 74868830090895986321199552207468240602 (0x3853365140E3E482AE2CE5402FEE1EDA) Complete name                            : D:\Torrent Seed\[BDrip]「少女☆歌劇 レヴュースタァライト」2ndスタァライブ “Starry Desert”\「少女☆歌劇 レヴュースタァライト」2ndスタァライブ “Starry Desert”_t01.mkv Format                                   : Matroska Format version                           : Version 2 File size                                : 6.81 GiB Duration                                 : 59 min 2 s Overall bit rate mode                    : Variable Overall bit rate                         : 16.5 Mb/s Movie name                               : 「少女☆歌劇 レヴュースタァライト」2ndスタァライブ “Starry Desert” Encoded date                             : UTC 2019-04-22 23:30:38 Writing application                      : MakeMKV v1.14.3 win(x64-release) Writing library                          : libmakemkv v1.14.3 (1.3.5/1.4.7) win(x64-release)  Video ID                                       : 1 ID in the original source medium         : 4113 (0x1011) Format                                   : AVC Format/Info                              : Advanced Video Codec Format profile                           : High@L4.1 Format settings                          : CABAC / 4 Ref Frames Format settings, CABAC                   : Yes Format settings, Reference frames        : 4 frames Codec ID                                 : V_MPEG4/ISO/AVC Duration                                 : 59 min 2 s Bit rate mode                            : Variable Bit rate                                 : 15.0 Mb/s Maximum bit rate                         : 39.0 Mb/s Width                                    : 1 920 pixels Height                                   : 1 080 pixels Display aspect ratio                     : 16:9 Frame rate mode                          : Constant Frame rate                               : 29.970 (30000/1001) FPS Color space                              : YUV Chroma subsampling                       : 4:2:0 Bit depth                                : 8 bits Scan type                                : MBAFF Scan type, store method                  : Interleaved fields Scan order                               : Top Field First Bits/(Pixel*Frame)                       : 0.241 Stream size                              : 6.18 GiB (91%) Language                                 : English Default                                  : No Forced                                   : No Original source medium                   : Blu-ray  Audio ID                                       : 2 ID in the original source medium         : 4352 (0x1100) Format                                   : PCM Format settings                          : Little / Signed Codec ID                                 : A_PCM/INT/LIT Duration                                 : 59 min 2 s Bit rate mode                            : Constant Bit rate                                 : 1 536 kb/s Channel(s)                               : 2 channels Sampling rate                            : 48.0 kHz Frame rate                               : 30.000 FPS (1600 SPF) Bit depth                                : 16 bits Stream size                              : 649 MiB (9%) Title                                    : Stereo Language                                 : Japanese Default                                  : Yes Forced                                   : No Original source medium                   : Blu-ray  Menu 00:00:00.000                             : ja:Chapter 01 00:04:55.728                             : ja:Chapter 02 00:10:27.226                             : ja:Chapter 03 00:15:30.696                             : ja:Chapter 04 00:20:33.232                             : ja:Chapter 05 00:25:52.851                             : ja:Chapter 06 00:31:17.208                             : ja:Chapter 07 00:35:49.814                             : ja:Chapter 08 00:42:49.567                             : ja:Chapter 09 00:46:37.394                             : ja:Chapter 10 00:55:17.514                             : ja:Chapter 11 00:59:01.037                             : ja:Chapter 12  General Unique ID                                : 64810585670222520382281361475505767203 (0x30C2109479B7245FC3CC062E7B384323) Complete name                            : D:\Torrent Seed\[BDrip]「少女☆歌劇 レヴュースタァライト」2ndスタァライブ “Starry Desert”\「少女☆歌劇 レヴュースタァライト」2ndスタァライブ “Starry Desert”_t02.mkv Format                                   : Matroska Format version                           : Version 2 File size                                : 1.27 GiB Duration                                 : 10 min 58 s Overall bit rate mode                    : Variable Overall bit rate                         : 16.5 Mb/s Movie name                               : 「少女☆歌劇 レヴュースタァライト」2ndスタァライブ “Starry Desert” Encoded date                             : UTC 2019-04-22 23:49:40 Writing application                      : MakeMKV v1.14.3 win(x64-release) Writing library                          : libmakemkv v1.14.3 (1.3.5/1.4.7) win(x64-release)  Video ID                                       : 1 ID in the original source medium         : 4113 (0x1011) Format                                   : AVC Format/Info                              : Advanced Video Codec Format profile                           : High@L4.1 Format settings                          : CABAC / 4 Ref Frames Format settings, CABAC                   : Yes Format settings, Reference frames        : 4 frames Codec ID                                 : V_MPEG4/ISO/AVC Duration                                 : 10 min 58 s Bit rate mode                            : Variable Bit rate                                 : 15.0 Mb/s Maximum bit rate                         : 39.0 Mb/s Width                                    : 1 920 pixels Height                                   : 1 080 pixels Display aspect ratio                     : 16:9 Frame rate mode                          : Constant Frame rate                               : 29.970 (30000/1001) FPS Color space                              : YUV Chroma subsampling                       : 4:2:0 Bit depth                                : 8 bits Scan type                                : MBAFF Scan type, store method                  : Interleaved fields Scan order                               : Top Field First Bits/(Pixel*Frame)                       : 0.241 Stream size                              : 1.15 GiB (91%) Language                                 : English Default                                  : No Forced                                   : No Original source medium                   : Blu-ray  Audio ID                                       : 2 ID in the original source medium         : 4352 (0x1100) Format                                   : PCM Format settings                          : Little / Signed Codec ID                                 : A_PCM/INT/LIT Duration                                 : 10 min 58 s Bit rate mode                            : Constant Bit rate                                 : 1 536 kb/s Channel(s)                               : 2 channels Sampling rate                            : 48.0 kHz Frame rate                               : 30.000 FPS (1600 SPF) Bit depth                                : 16 bits Stream size                              : 121 MiB (9%) Title                                    : Stereo Language                                 : Japanese Default                                  : Yes Forced                                   : No Original source medium                   : Blu-ray  Menu 00:00:00.000                             : ja:Chapter 01 00:01:30.924                             : ja:Chapter 02 00:05:55.555                             : ja:Chapter 03 00:10:57.823                             : ja:Chapter 04  General Unique ID                                : 331308365496394359063326127885964527751 (0xF93FAB91CDF1DD60DD058EB7883FC887) Complete name                            : D:\Torrent Seed\[BDrip]「少女☆歌劇 レヴュースタァライト」2ndスタァライブ “Starry Desert”\「少女☆歌劇 レヴュースタァライト」2ndスタァライブ “Starry Desert”_t03.mkv Format                                   : Matroska Format version                           : Version 2 File size                                : 32.2 GiB Duration                                 : 2 h 31 min Overall bit rate mode                    : Variable Overall bit rate                         : 30.5 Mb/s Movie name                               : 「少女☆歌劇 レヴュースタァライト」2ndスタァライブ “Starry Desert” Encoded date                             : UTC 2019-04-22 23:51:50 Writing application                      : MakeMKV v1.14.3 win(x64-release) Writing library                          : libmakemkv v1.14.3 (1.3.5/1.4.7) win(x64-release)  Video ID                                       : 1 ID in the original source medium         : 4113 (0x1011) Format                                   : AVC Format/Info                              : Advanced Video Codec Format profile                           : High@L4.1 Format settings                          : CABAC / 4 Ref Frames Format settings, CABAC                   : Yes Format settings, Reference frames        : 4 frames Codec ID                                 : V_MPEG4/ISO/AVC Duration                                 : 2 h 31 min Bit rate mode                            : Variable Bit rate                                 : 28.9 Mb/s Maximum bit rate                         : 39.0 Mb/s Width                                    : 1 920 pixels Height                                   : 1 080 pixels Display aspect ratio                     : 16:9 Frame rate mode                          : Constant Frame rate                               : 29.970 (30000/1001) FPS Color space                              : YUV Chroma subsampling                       : 4:2:0 Bit depth                                : 8 bits Scan type                                : MBAFF Scan type, store method                  : Interleaved fields Scan order                               : Top Field First Bits/(Pixel*Frame)                       : 0.466 Stream size                              : 30.6 GiB (95%) Language                                 : English Default                                  : No Forced                                   : No Original source medium                   : Blu-ray  Audio ID                                       : 2 ID in the original source medium         : 4352 (0x1100) Format                                   : PCM Format settings                          : Little / Signed Codec ID                                 : A_PCM/INT/LIT Duration                                 : 2 h 31 min Bit rate mode                            : Constant Bit rate                                 : 1 536 kb/s Channel(s)                               : 2 channels Sampling rate                            : 48.0 kHz Frame rate                               : 30.000 FPS (1600 SPF) Bit depth                                : 16 bits Stream size                              : 1.62 GiB (5%) Title                                    : Stereo Language                                 : Japanese Default                                  : Yes Forced                                   : No Original source medium                   : Blu-ray  Menu 00:00:00.000                             : ja:Chapter 01 00:02:48.168                             : ja:Chapter 02 00:07:33.553                             : ja:Chapter 03 00:11:41.667                             : ja:Chapter 04 00:16:02.428                             : ja:Chapter 05 00:20:36.235                             : ja:Chapter 06 00:25:10.509                             : ja:Chapter 07 00:27:25.310                             : ja:Chapter 08 00:30:38.803                             : ja:Chapter 09 00:33:38.516                             : ja:Chapter 10 00:36:56.547                             : ja:Chapter 11 00:40:26.657                             : ja:Chapter 12 00:44:54.191                             : ja:Chapter 13 00:49:30.100                             : ja:Chapter 14 00:52:59.509                             : ja:Chapter 15 00:57:54.471                             : ja:Chapter 16 01:03:25.968                             : ja:Chapter 17 01:08:29.438                             : ja:Chapter 18 01:13:32.074                             : ja:Chapter 19 01:18:51.526                             : ja:Chapter 20 01:24:15.950                             : ja:Chapter 21 01:28:48.256                             : ja:Chapter 22 01:35:48.342                             : ja:Chapter 23 01:39:35.469                             : ja:Chapter 24 01:48:15.155                             : ja:Chapter 25 01:52:02.115                             : ja:Chapter 26 01:53:12.585                             : ja:Chapter 27 01:57:44.424                             : ja:Chapter 28 01:58:31.504                             : ja:Chapter 29 02:03:32.805                             : ja:Chapter 30 02:24:52.550                             : ja:Chapter 31 02:29:40.237                             : ja:Chapter 32 02:30:57.948                             : ja:Chapter 33 02:31:10.961                             : ja:Chapter 34


    General Complete name                            : L:\BluRay Dump\compressed\「少女☆歌劇 レヴュースタァライト」2ndスタァライブ “Starry Desert”_t00_batch.mp4 Format                                   : MPEG-4 Format profile                           : Base Media Codec ID                                 : isom (isom) File size                                : 300 MiB Duration                                 : 19 min 17 s Overall bit rate mode                    : Variable Overall bit rate                         : 2 176 kb/s Encoded date                             : UTC 2019-04-23 02:03:10 Tagged date                              : UTC 2019-04-23 02:03:10  Video ID                                       : 1 Format                                   : AVC Format/Info                              : Advanced Video Codec Format profile                           : High@L4 Format settings                          : CABAC / 4 Ref Frames Format settings, CABAC                   : Yes Format settings, Reference frames        : 4 frames Codec ID                                 : avc1 Codec ID/Info                            : Advanced Video Coding Duration                                 : 19 min 17 s Bit rate                                 : 2 044 kb/s Maximum bit rate                         : 6 151 kb/s Width                                    : 1 920 pixels Height                                   : 1 080 pixels Display aspect ratio                     : 16:9 Frame rate mode                          : Variable Frame rate                               : 23.976 FPS Minimum frame rate                       : 23.810 FPS Maximum frame rate                       : 24.390 FPS Color space                              : YUV Chroma subsampling                       : 4:2:0 Bit depth                                : 8 bits Scan type                                : Progressive Bits/(Pixel*Frame)                       : 0.041 Stream size                              : 282 MiB (94%) Writing library                          : x264 core 148 r2721+46 0c4b09a xiaowan [8-bit@all X86_64] Encoding settings                        : cabac=1 / ref=4 / deblock=1:1:1 / analyse=0x3:0x133 / me=umh / subme=10 / psy=1 / fade_compensate=0.00 / psy_rd=0.30:0.00 / mixed_ref=1 / me_range=24 / chroma_me=1 / trellis=2 / 8x8dct=1 / cqm=0 / deadzone=21,11 / fast_pskip=1 / chroma_qp_offset=-2 / threads=12 / lookahead_threads=1 / sliced_threads=0 / nr=0 / decimate=1 / interlaced=0 / bluray_compat=0 / constrained_intra=0 / fgo=0 / bframes=3 / b_pyramid=2 / b_adapt=2 / b_bias=0 / direct=3 / weightb=1 / open_gop=0 / weightp=2 / keyint=240 / keyint_min=1 / scenecut=60 / intra_refresh=0 / rc_lookahead=60 / rc=crf / mbtree=1 / crf=23.0000 / qcomp=0.50 / qpmin=0:0:0 / qpmax=69:69:69 / qpstep=4 / ip_ratio=1.40 / aq=2:0.80 / aq-sensitivity=10.00 / aq-factor=1.00:1.00:1.00 / aq2=0 / aq3=0 Encoded date                             : UTC 2019-04-23 01:43:01 Tagged date                              : UTC 2019-04-23 02:03:12 Color range                              : Limited Matrix coefficients                      : BT.709 Codec configuration box                  : avcC  Audio ID                                       : 2 Format                                   : AAC LC Format/Info                              : Advanced Audio Codec Low Complexity Codec ID                                 : mp4a-40-2 Duration                                 : 19 min 17 s Bit rate mode                            : Variable Bit rate                                 : 127 kb/s Maximum bit rate                         : 160 kb/s Channel(s)                               : 2 channels Channel layout                           : L R Sampling rate                            : 48.0 kHz Frame rate                               : 46.875 FPS (1024 SPF) Compression mode                         : Lossy Stream size                              : 17.5 MiB (6%) Encoded date                             : UTC 2019-04-23 01:42:43 Tagged date                              : UTC 2019-04-23 02:03:12  General Complete name                            : L:\BluRay Dump\compressed\「少女☆歌劇 レヴュースタァライト」2ndスタァライブ “Starry Desert”_t01_batch.mp4 Format                                   : MPEG-4 Format profile                           : Base Media Codec ID                                 : isom (isom) File size                                : 491 MiB Duration                                 : 59 min 2 s Overall bit rate mode                    : Variable Overall bit rate                         : 1 162 kb/s Encoded date                             : UTC 2019-04-23 02:50:42 Tagged date                              : UTC 2019-04-23 02:50:42  Video ID                                       : 1 Format                                   : AVC Format/Info                              : Advanced Video Codec Format profile                           : High@L4 Format settings                          : CABAC / 4 Ref Frames Format settings, CABAC                   : Yes Format settings, Reference frames        : 4 frames Codec ID                                 : avc1 Codec ID/Info                            : Advanced Video Coding Duration                                 : 59 min 2 s Bit rate                                 : 1 028 kb/s Maximum bit rate                         : 5 417 kb/s Width                                    : 1 920 pixels Height                                   : 1 080 pixels Display aspect ratio                     : 16:9 Frame rate mode                          : Variable Frame rate                               : 29.970 FPS Minimum frame rate                       : 29.412 FPS Maximum frame rate                       : 30.303 FPS Color space                              : YUV Chroma subsampling                       : 4:2:0 Bit depth                                : 8 bits Scan type                                : MBAFF Scan type, store method                  : Interleaved fields Scan order                               : Top Field First Bits/(Pixel*Frame)                       : 0.017 Stream size                              : 434 MiB (88%) Writing library                          : x264 core 148 r2721+46 0c4b09a xiaowan [8-bit@all X86_64] Encoding settings                        : cabac=1 / ref=4 / deblock=1:1:1 / analyse=0x3:0x133 / me=umh / subme=10 / psy=1 / fade_compensate=0.00 / psy_rd=0.30:0.00 / mixed_ref=1 / me_range=24 / chroma_me=1 / trellis=2 / 8x8dct=1 / cqm=0 / deadzone=21,11 / fast_pskip=1 / chroma_qp_offset=-2 / threads=12 / lookahead_threads=1 / sliced_threads=0 / nr=0 / decimate=1 / interlaced=tff / bluray_compat=0 / constrained_intra=0 / fgo=0 / bframes=3 / b_pyramid=2 / b_adapt=2 / b_bias=0 / direct=3 / weightb=1 / open_gop=0 / weightp=0 / keyint=300 / keyint_min=1 / scenecut=60 / intra_refresh=0 / rc_lookahead=60 / rc=crf / mbtree=1 / crf=23.0000 / qcomp=0.50 / qpmin=0:0:0 / qpmax=69:69:69 / qpstep=4 / ip_ratio=1.40 / aq=2:0.80 / aq-sensitivity=10.00 / aq-factor=1.00:1.00:1.00 / aq2=0 / aq3=0 Encoded date                             : UTC 2019-04-23 02:04:38 Tagged date                              : UTC 2019-04-23 02:50:55 Color range                              : Limited Matrix coefficients                      : BT.709 Codec configuration box                  : avcC  Audio ID                                       : 2 Format                                   : AAC LC Format/Info                              : Advanced Audio Codec Low Complexity Codec ID                                 : mp4a-40-2 Duration                                 : 59 min 2 s Bit rate mode                            : Variable Bit rate                                 : 128 kb/s Maximum bit rate                         : 145 kb/s Channel(s)                               : 2 channels Channel layout                           : L R Sampling rate                            : 48.0 kHz Frame rate                               : 46.875 FPS (1024 SPF) Compression mode                         : Lossy Stream size                              : 54.0 MiB (11%) Encoded date                             : UTC 2019-04-23 02:03:13 Tagged date                              : UTC 2019-04-23 02:50:55  General Complete name                            : L:\BluRay Dump\compressed\「少女☆歌劇 レヴュースタァライト」2ndスタァライブ “Starry Desert”_t02_batch.mp4 Format                                   : MPEG-4 Format profile                           : Base Media Codec ID                                 : isom (isom) File size                                : 439 MiB Duration                                 : 10 min 58 s Overall bit rate mode                    : Variable Overall bit rate                         : 5 587 kb/s Encoded date                             : UTC 2019-04-23 03:11:33 Tagged date                              : UTC 2019-04-23 03:11:33  Video ID                                       : 1 Format                                   : AVC Format/Info                              : Advanced Video Codec Format profile                           : High@L4 Format settings                          : CABAC / 4 Ref Frames Format settings, CABAC                   : Yes Format settings, Reference frames        : 4 frames Codec ID                                 : avc1 Codec ID/Info                            : Advanced Video Coding Duration                                 : 10 min 58 s Source duration                          : 10 min 58 s Bit rate                                 : 5 454 kb/s Maximum bit rate                         : 12.0 Mb/s Width                                    : 1 920 pixels Height                                   : 1 080 pixels Display aspect ratio                     : 16:9 Frame rate mode                          : Variable Frame rate                               : 29.970 FPS Minimum frame rate                       : 29.412 FPS Maximum frame rate                       : 30.303 FPS Color space                              : YUV Chroma subsampling                       : 4:2:0 Bit depth                                : 8 bits Scan type                                : MBAFF Scan type, store method                  : Interleaved fields Scan order                               : Top Field First Bits/(Pixel*Frame)                       : 0.088 Stream size                              : 428 MiB (98%) Source stream size                       : 428 MiB (98%) Writing library                          : x264 core 148 r2721+46 0c4b09a xiaowan [8-bit@all X86_64] Encoding settings                        : cabac=1 / ref=4 / deblock=1:1:1 / analyse=0x3:0x133 / me=umh / subme=10 / psy=1 / fade_compensate=0.00 / psy_rd=0.30:0.00 / mixed_ref=1 / me_range=24 / chroma_me=1 / trellis=2 / 8x8dct=1 / cqm=0 / deadzone=21,11 / fast_pskip=1 / chroma_qp_offset=-2 / threads=12 / lookahead_threads=1 / sliced_threads=0 / nr=0 / decimate=1 / interlaced=tff / bluray_compat=0 / constrained_intra=0 / fgo=0 / bframes=3 / b_pyramid=2 / b_adapt=2 / b_bias=0 / direct=3 / weightb=1 / open_gop=0 / weightp=0 / keyint=300 / keyint_min=1 / scenecut=60 / intra_refresh=0 / rc_lookahead=60 / rc=crf / mbtree=1 / crf=23.0000 / qcomp=0.50 / qpmin=0:0:0 / qpmax=69:69:69 / qpstep=4 / ip_ratio=1.40 / aq=2:0.80 / aq-sensitivity=10.00 / aq-factor=1.00:1.00:1.00 / aq2=0 / aq3=0 Encoded date                             : UTC 2019-04-23 02:51:11 Tagged date                              : UTC 2019-04-23 03:11:34 Color range                              : Limited Matrix coefficients                      : BT.709 Codec configuration box                  : avcC  Audio ID                                       : 2 Format                                   : AAC LC Format/Info                              : Advanced Audio Codec Low Complexity Codec ID                                 : mp4a-40-2 Duration                                 : 10 min 58 s Bit rate mode                            : Variable Bit rate                                 : 128 kb/s Maximum bit rate                         : 139 kb/s Channel(s)                               : 2 channels Channel layout                           : L R Sampling rate                            : 48.0 kHz Frame rate                               : 46.875 FPS (1024 SPF) Compression mode                         : Lossy Stream size                              : 10.0 MiB (2%) Encoded date                             : UTC 2019-04-23 02:50:57 Tagged date                              : UTC 2019-04-23 03:11:34  General Complete name                            : L:\BluRay Dump\compressed\「少女☆歌劇 レヴュースタァライト」2ndスタァライブ “Starry Desert”_t03_batch.mp4 Format                                   : MPEG-4 Format profile                           : Base Media Codec ID                                 : isom (isom) File size                                : 4.97 GiB Duration                                 : 2 h 31 min Overall bit rate mode                    : Variable Overall bit rate                         : 4 703 kb/s Encoded date                             : UTC 2019-04-23 07:39:55 Tagged date                              : UTC 2019-04-23 07:39:55  Video ID                                       : 1 Format                                   : AVC Format/Info                              : Advanced Video Codec Format profile                           : High@L4 Format settings                          : CABAC / 4 Ref Frames Format settings, CABAC                   : Yes Format settings, Reference frames        : 4 frames Codec ID                                 : avc1 Codec ID/Info                            : Advanced Video Coding Duration                                 : 2 h 31 min Bit rate                                 : 4 569 kb/s Maximum bit rate                         : 66.5 Mb/s Width                                    : 1 920 pixels Height                                   : 1 080 pixels Display aspect ratio                     : 16:9 Frame rate mode                          : Variable Frame rate                               : 29.970 FPS Minimum frame rate                       : 29.412 FPS Maximum frame rate                       : 30.303 FPS Color space                              : YUV Chroma subsampling                       : 4:2:0 Bit depth                                : 8 bits Scan type                                : MBAFF Scan type, store method                  : Interleaved fields Scan order                               : Top Field First Bits/(Pixel*Frame)                       : 0.074 Stream size                              : 4.83 GiB (97%) Writing library                          : x264 core 148 r2721+46 0c4b09a xiaowan [8-bit@all X86_64] Encoding settings                        : cabac=1 / ref=4 / deblock=1:1:1 / analyse=0x3:0x133 / me=umh / subme=10 / psy=1 / fade_compensate=0.00 / psy_rd=0.30:0.00 / mixed_ref=1 / me_range=24 / chroma_me=1 / trellis=2 / 8x8dct=1 / cqm=0 / deadzone=21,11 / fast_pskip=1 / chroma_qp_offset=-2 / threads=12 / lookahead_threads=1 / sliced_threads=0 / nr=0 / decimate=1 / interlaced=tff / bluray_compat=0 / constrained_intra=0 / fgo=0 / bframes=3 / b_pyramid=2 / b_adapt=2 / b_bias=0 / direct=3 / weightb=1 / open_gop=0 / weightp=0 / keyint=300 / keyint_min=1 / scenecut=60 / intra_refresh=0 / rc_lookahead=60 / rc=crf / mbtree=1 / crf=23.0000 / qcomp=0.50 / qpmin=0:0:0 / qpmax=69:69:69 / qpstep=4 / ip_ratio=1.40 / aq=2:0.80 / aq-sensitivity=10.00 / aq-factor=1.00:1.00:1.00 / aq2=0 / aq3=0 Encoded date                             : UTC 2019-04-23 03:16:04 Tagged date                              : UTC 2019-04-23 07:42:21 Color range                              : Limited Matrix coefficients                      : BT.709 Codec configuration box                  : avcC  Audio ID                                       : 2 Format                                   : AAC LC Format/Info                              : Advanced Audio Codec Low Complexity Codec ID                                 : mp4a-40-2 Duration                                 : 2 h 31 min Bit rate mode                            : Variable Bit rate                                 : 128 kb/s Maximum bit rate                         : 145 kb/s Channel(s)                               : 2 channels Channel layout                           : L R Sampling rate                            : 48.0 kHz Frame rate                               : 46.875 FPS (1024 SPF) Compression mode                         : Lossy Stream size                              : 138 MiB (3%) Encoded date                             : UTC 2019-04-23 03:11:35 Tagged date                              : UTC 2019-04-23 07:42:21


    已有 1 人评分威望 天使币 宣传 天然 腹黑 精灵 收起 理由
    I_Shinji + 505 + 1010 + 20 + 66 + 66 + 10

    总评分: 威望 + 505  天使币 + 1010  宣传 + 20  天然 + 66  腹黑 + 66  精灵 + 10   查看全部评分

    收到的礼物: x1
    folee2008
    fokr

    LEVEL 4 睿智
    UID:546967
    精华:0
    主题:105
    帖子:1743
    威望:1852
    天使币:297
    宣传度:17
    天然°:63
    腹黑°:53
    精灵:0
    豚金:0
    阅读权限:35
    注册时间:2012-12-20
    来自:hong kong
    状态: 不在线

  • TA的每日心情
    无聊

    签到天数: 162天[LV.8]以坛为家I

  • folee2008 发表于 2019-4-27 14:27:28 |显示全部楼层
    升级
    the first of funny times
    dddfdf

    使用道具 举报

    kai2

    梦幻天使
    UID:1723841
    精华:0
    主题:0
    帖子:275
    威望:581
    天使币:2710
    宣传度:50
    天然°:10
    腹黑°:0
    精灵:0
    豚金:0
    阅读权限:130
    注册时间:2018-3-28
    状态: 不在线

  • TA的每日心情
    开心

    签到天数: 246天[LV.9]以坛为家II

  • kai2 发表于 2019-4-27 14:29:27 |显示全部楼层

    the first of funny times

    使用道具 举报

    不能喜欢你
    不能喜欢你

    LEVEL 3 POWER
    UID:1471079
    精华:0
    主题:6
    帖子:971
    威望:1166
    天使币:43528
    宣传度:45
    天然°:21
    腹黑°:20
    精灵:0
    豚金:0
    阅读权限:30
    注册时间:2016-3-15
    来自:广东
    状态: 不在线

  • TA的每日心情
    擦汗

    签到天数: 905天[LV.Master]伴坛终老

  • 不能喜欢你 发表于 2019-4-27 16:50:43 |显示全部楼层
    the first of funny times

    使用道具 举报

    3或15

    LEVEL 2 升华
    UID:1782961
    精华:0
    主题:1
    帖子:252
    威望:654
    天使币:2969
    宣传度:7
    天然°:126
    腹黑°:126
    精灵:0
    豚金:0
    阅读权限:25
    注册时间:2018-11-7
    来自:台灣
    状态: 不在线

  • TA的每日心情
    奋斗

    签到天数: 191天[LV.8]以坛为家I

  • 3或15 发表于 2019-4-27 16:54:07 |显示全部楼层
    感謝大老!

    使用道具 举报

    zaijoe

    LEVEL 2 升华
    UID:405855
    精华:0
    主题:2
    帖子:563
    威望:724
    天使币:2661
    宣传度:5
    天然°:30
    腹黑°:30
    精灵:2
    豚金:0
    阅读权限:25
    注册时间:2012-8-22
    状态: 不在线

  • TA的每日心情
    郁闷

    签到天数: 390天[LV.Master]伴坛终老

  • zaijoe 发表于 2019-4-27 17:40:19 |显示全部楼层
    感谢分享!

    使用道具 举报

    wmtwmt12

    梦幻天使
    UID:1846579
    精华:0
    主题:0
    帖子:9
    威望:300
    天使币:1049
    宣传度:50
    天然°:10
    腹黑°:0
    精灵:0
    豚金:0
    阅读权限:130
    注册时间:2019-3-2
    状态: 不在线

    该用户从未签到

    wmtwmt12 发表于 2019-4-27 18:08:14 |显示全部楼层
    謝大大無私分享

    使用道具 举报

    InoriAnju4407
    祈雨

    梦幻天使
    UID:1675596
    精华:0
    主题:1
    帖子:189
    威望:676
    天使币:1506
    宣传度:60
    天然°:20
    腹黑°:20
    精灵:0
    豚金:0
    阅读权限:130
    注册时间:2017-9-3
    来自:台灣
    状态: 不在线

  • TA的每日心情
    慵懒

    签到天数: 151天[LV.8]以坛为家I

  • InoriAnju4407 发表于 2019-4-27 18:30:58 |显示全部楼层
    Thx...   

    使用道具 举报

    sky3312ehs

    LEVEL 1 断罪
    UID:1361871
    精华:0
    主题:4
    帖子:178
    威望:849
    天使币:1527
    宣传度:30
    天然°:130
    腹黑°:135
    精灵:3
    豚金:0
    阅读权限:25
    注册时间:2015-11-12
    状态: 不在线

  • TA的每日心情
    慵懒

    签到天数: 118天[LV.7]常住居民III

  • sky3312ehs 发表于 2019-4-27 19:19:24 |显示全部楼层
    感谢分享!

    使用道具 举报

    dog283536

    梦幻天使
    UID:1383441
    精华:0
    主题:0
    帖子:128
    威望:521
    天使币:2572
    宣传度:53
    天然°:20
    腹黑°:20
    精灵:0
    豚金:0
    阅读权限:130
    注册时间:2015-12-14
    状态: 不在线

  • TA的每日心情
    难过

    签到天数: 55天[LV.5]常住居民I

  • dog283536 发表于 2019-4-27 19:27:12 |显示全部楼层
    感謝樓主分享

    使用道具 举报

    您需要登录后才可以回帖 登录 | 注册

    加天使同城QQ群,有威望奖励~

    Archiver|手机版|WAP| 天使动漫论坛   

    声明:本站所有内容资源均来自网络&网友分享,仅供学习试用。如侵犯您的权益请告知,将会第一时间删除。广告联系我的邮箱

    GMT+8, 2019-5-25 09:02 , Processed in 0.218400 second(s), 53 queries , Gzip On, Memcache On.

    Powered by Discuz! X2

    © 2001-2011 Comsenz Inc.

    回顶部