背景音乐

天使动漫论坛 - 梦开始的地方

查看: 25|回复: 2

[LIVE] [度盘]SNOW MIKU LIVE! 2019[WebRip][1920x1080p][AVC_YUV420p10_50fps][内嵌特效字幕]【自制】【5G】 [复制链接]

子猫のパヤパヤ 发表于 2019-4-7 20:48:36 |显示全部楼层
雪未来2019演唱会的内嵌字幕
使用B站当时的直播源制作了内嵌字幕,稍微带点特效

详细的图文介绍写在B站专栏了↓
https://www.bilibili.com/read/cv2408797
建议先去看看= =

文件信息

General
Complete name                  : H:\SNOW MIKU LIVE! 2019[WebRip][1920x1080p][AVC_YUV420p10_50fps][Effect Subtitles].mp4
Format                         : MPEG-4
Format profile                 : Base Media
Codec ID                       : isom (isom)
File size                      : 4.94 GiB
Duration                       : 1 h 58 min
Overall bit rate mode          : Variable
Overall bit rate               : 5 989 kb/s
Encoded date                   : UTC 2019-04-02 23:16:40
Tagged date                    : UTC 2019-04-02 23:16:40

Video
ID                             : 1
Format                         : AVC
Format/Info                    : Advanced Video Codec
Format profile                 : High 10@L4.2
Format settings                : CABAC / 4 Ref Frames
Format settings, CABAC         : Yes
Format settings, ReFrames      : 4 frames
Codec ID                       : avc1
Codec ID/Info                  : Advanced Video Coding
Duration                       : 1 h 58 min
Bit rate                       : 5 549 kb/s
Maximum bit rate               : 16.7 Mb/s
Width                          : 1 920 pixels
Height                         : 1 080 pixels
Display aspect ratio           : 16:9
Frame rate mode                : Constant
Frame rate                     : 50.000 FPS
Color space                    : YUV
Chroma subsampling             : 4:2:0
Bit depth                      : 10 bits
Scan type                      : Progressive
Bits/(Pixel*Frame)             : 0.054
Stream size                    : 4.58 GiB (93%)
Writing library                : x264 core 152 r2851+45 9658d1a 7mod [10-bit@all X86_64]
Encoding settings              : cabac=1 / ref=3 / deblock=1:3:3 / analyse=0x3:0x113 / me=hex / subme=7 / psy=1 / fade_compensate=0.00 / psy_rd=1.00:0.15 / mixed_ref=1 / me_range=16 / chroma_me=1 / trellis=1 / 8x8dct=1 / cqm=0 / deadzone=21,11 / fast_pskip=1 / chroma_qp_offset=-3 / threads=6 / lookahead_threads=1 / sliced_threads=0 / nr=0 / decimate=1 / interlaced=0 / bluray_compat=0 / constrained_intra=0 / fgo=0 / bframes=3 / b_pyramid=2 / b_adapt=1 / b_bias=0 / direct=1 / weightb=1 / open_gop=1 / weightp=2 / keyint=960 / keyint_min=2 / scenecut=40 / intra_refresh=0 / rc_lookahead=40 / rc=crf / mbtree=1 / crf=24.0000 / qcomp=0.60 / qpmin=0:0:0 / qpmax=81:81:81 / qpstep=4 / ip_ratio=1.40 / aq=1:1.00 / aq-sensitivity=10.00 / aq-factor=1.00:1.00:1.00 / aq2=0 / aq3=0
Encoded date                   : UTC 2019-04-02 16:59:44
Tagged date                    : UTC 2019-04-02 23:20:50
Codec configuration box        : avcC

Audio
ID                             : 2
Format                         : AAC LC
Format/Info                    : Advanced Audio Codec Low Complexity
Codec ID                       : mp4a-40-2
Duration                       : 1 h 58 min
Bit rate mode                  : Variable
Bit rate                       : 434 kb/s
Maximum bit rate               : 463 kb/s
Channel(s)                     : 2 channels
Channel layout                 : L R
Sampling rate                  : 48.0 kHz
Frame rate                     : 46.875 FPS (1024 SPF)
Compression mode               : Lossy
Stream size                    : 367 MiB (7%)
Language                       : Japanese
Encoded date                   : UTC 2019-04-02 23:11:42
Tagged date                    : UTC 2019-04-02 23:20:50



这点东西懒得设置啥了,直接下吧
下载地址
链接:https://pan.baidu.com/s/1c-dNc29qfnM2KYSRFNDcjA 
提取码:eovm 


专栏里还有个BT可以试试,也可以试试有没有速度= =


已有 1 人评分威望 天使币 宣传 天然 腹黑 精灵 收起 理由
I_Shinji + 75 + 150 + 10 + 20 + 20 + 1

总评分: 威望 + 75  天使币 + 150  宣传 + 10  天然 + 20  腹黑 + 20  精灵 + 1   查看全部评分

升级
感谢分享,哈哈

使用道具 举报

john990129 发表于 2019-7-2 23:14:22 |显示全部楼层
感謝分享,我來幫忙做種,哈哈

使用道具 举报

您需要登录后才可以回帖 登录 | 注册

加天使同城QQ群,有威望奖励~

Archiver|手机版|WAP| 天使动漫论坛   

声明:本站所有内容资源均来自网络&网友分享,仅供学习试用。如侵犯您的权益请告知,将会第一时间删除。广告联系我的邮箱

GMT+8, 2019-7-24 01:56 , Processed in 1.435203 second(s), 26 queries , Gzip On, Memcache On.

Powered by Discuz! X2

© 2001-2011 Comsenz Inc.

回顶部