快捷导航
查看: 156|回复: 156

[动漫音乐] [EAC/自抓自扫][BD][190306][SawanoHiroyuki[nZk] - R∃/MEMBER][WAV+CUE+LOG+BK(已更新)] [复制链接]

tonk

雨泽天使
UID:640508
精华:10
主题:945
帖子:2992
威望:82013
天使币:1500279
宣传度:30552
天然°:20684
腹黑°:20378
精灵:1350
豚金:33
阅读权限:150
注册时间:2013-3-29
来自:苏州
状态: 不在线

  • TA的每日心情
    开心

    签到天数: 1603天[LV.Master]伴坛终老

  • tonk 发表于 2019-3-5 11:34:38 |显示全部楼层







    简介:
    超豪華ゲスト参加の澤野弘之ボーカルプロジェクト3rdアルバム!

    『機動戦士ガンダムNT』『進撃の巨人』『青の祓魔師』など、数々の大ヒットアニメ作品を担当する劇伴作家・澤野弘之のアーティスト活動となるSawanoHiroyuki[nZk](サワノヒロユキヌジーク)の通算3枚目のオリジナルアルバム!
    オリコン週間3位を記録した前作「2V-ALK」から約1年半ぶりとなる今作には超豪華なゲスト陣が参加!
    『機動戦士ガンダムNT』主題歌参加のLiSA、TVアニメ「銀河英雄伝説 Die Neue These」OPテーマ参加のUruに加えて、西川貴教、さユり、ASCAらが参加決定!
    さらなる豪華ゲストも参加となる濃厚な一枚が完成!

    老澤的后宫圈越开越大hhhhhh。。。






    曲目:
    1. Glory -into the RM - by SawanoHiroyuki[nZk] : SUGIZO
    2. EVERCHiLD - by SawanoHiroyuki[nZk] : Akihito Okano(ポルノグラフィティ)
    3. never gonna change - by SawanoHiroyuki[nZk] : スキマスイッチ
    4. narrative - by SawanoHiroyuki[nZk] : LiSA
    5. i-mage - by SawanoHiroyuki[nZk] : Aimer
    6. NOISEofRAIN - by SawanoHiroyuki[nZk] : Takanori Nishikawa
    7. Binary Star - by SawanoHiroyuki[nZk] : Uru
    8. ME & CREED - by SawanoHiroyuki[nZk] : さユり
    9. Unti-L - by SawanoHiroyuki[nZk] : ASCA
    10. Cage - by SawanoHiroyuki[nZk] : Tielle
    11. REMEMBER - by SawanoHiroyuki

    CUE不会改的请直接记事本打开复制黏贴下列内容到文件:

    REM DATE 2019
    REM DISCID 9D0BB80B
    REM COMMENT ExactAudioCopy v1.3
    PERFORMER "SawanoHiroyuki[nZk]"
    TITLE "R∃/MEMBER"
    FILE "SawanoHiroyuki[nZk] - R∃,MEMBER.wav" WAVE
      TRACK 01 AUDIO
        TITLE "Glory -into the RM-"
        PERFORMER "SUGIZO"
        ISRC JPU901900248
        INDEX 01 00:00:00
      TRACK 02 AUDIO
        TITLE "EVERCHiLD"
        PERFORMER "Akihito Okano(ポルノグラフィティ)"
        ISRC JPU901900249
        INDEX 01 05:07:44
      TRACK 03 AUDIO
        TITLE "never gonna change"
        PERFORMER "スキマスイッチ"
        ISRC JPU901900250
        INDEX 00 09:32:17
        INDEX 01 09:33:04
      TRACK 04 AUDIO
        TITLE "narrative"
        PERFORMER "LiSA"
        ISRC JPU901803381
        INDEX 00 13:34:28
        INDEX 01 13:35:14
      TRACK 05 AUDIO
        TITLE "i-mage"
        PERFORMER "Aimer"
        ISRC JPU901900251
        INDEX 00 17:54:67
        INDEX 01 17:55:53
      TRACK 06 AUDIO
        TITLE "NOISEofRAIN"
        PERFORMER "Takanori Nishikawa"
        ISRC JPU901803382
        INDEX 00 23:41:25
        INDEX 01 23:42:49
      TRACK 07 AUDIO
        TITLE "Binary Star"
        PERFORMER "Uru"
        ISRC JPU901800581
        INDEX 00 27:50:57
        INDEX 01 27:51:43
      TRACK 08 AUDIO
        TITLE "ME & CREED<nZkv>"
        PERFORMER "さユり"
        ISRC JPU901900252
        INDEX 01 32:35:32
      TRACK 09 AUDIO
        TITLE "Unti-L"
        PERFORMER "ASCA"
        ISRC JPU901900253
        INDEX 01 36:01:55
      TRACK 10 AUDIO
        TITLE "Cage"
        PERFORMER "Tielle"
        ISRC JPU901800582
        INDEX 00 40:04:46
        INDEX 01 40:05:32
      TRACK 11 AUDIO
        TITLE "REMEMBER"
        PERFORMER "SawanoHiroyuki"
        ISRC JPU901900254
        INDEX 00 44:49:61
        INDEX 01 44:51:48







    BK:







    下载:
    收到的礼物: x2 x1
    个人自购自抓自扫专辑1167张索引 (点击下图进入列表)
    黑暗小奈

    见习天使
    UID:642459
    精华:0
    主题:0
    帖子:40
    威望:29
    天使币:143
    宣传度:0
    天然°:0
    腹黑°:0
    精灵:0
    豚金:0
    阅读权限:12
    注册时间:2013-3-31
    状态: 不在线

  • TA的每日心情
    开心

    签到天数: 26天[LV.4]偶尔看看III

  • 黑暗小奈 发表于 2019-3-5 11:50:45 来自手机 |显示全部楼层
    升级
    谢谢(*°∀°)=3大佬分享

    使用道具 举报

    迪卢木多
    Akechi

    梦幻天使
    UID:259169
    头衔:幸运E怎么了? 我有泪痣 你有吗?
    精华:0
    主题:2
    帖子:631
    威望:1688
    天使币:5936
    宣传度:203
    天然°:82
    腹黑°:82
    精灵:0
    豚金:0
    阅读权限:130
    注册时间:2012-4-17
    状态: 不在线

  • TA的每日心情
    无聊

    签到天数: 91天[LV.6]常住居民II

  • 迪卢木多 发表于 2019-3-5 11:50:54 |显示全部楼层
    我的第一反应: 哇 好多新后宫 さユり倒是听过几个 诶 这个Nishikawa是哪儿来的新人?

    使用道具 举报

    我要刁死你

    梦幻天使
    UID:1794215
    精华:0
    主题:0
    帖子:134
    威望:422
    天使币:2576
    宣传度:50
    天然°:0
    腹黑°:0
    精灵:0
    豚金:0
    阅读权限:130
    注册时间:2018-12-19
    状态: 不在线

  • TA的每日心情
    开心

    签到天数: 121天[LV.7]常住居民III

  • 感谢大佬!

    使用道具 举报

    UNICORN丶

    梦幻天使
    UID:1679270
    精华:0
    主题:6
    帖子:130
    威望:532
    天使币:9332
    宣传度:56
    天然°:10
    腹黑°:10
    精灵:0
    豚金:0
    阅读权限:130
    注册时间:2017-9-22
    状态: 不在线

  • TA的每日心情
    开心

    签到天数: 54天[LV.5]常住居民I

  • UNICORN丶 发表于 2019-3-5 12:14:49 |显示全部楼层
    感谢分享!OwO期待BK

    使用道具 举报

    杀了我吧cc

    LEVEL 2 升华
    UID:1560122
    精华:0
    主题:2
    帖子:527
    威望:715
    天使币:4619
    宣传度:5
    天然°:5
    腹黑°:5
    精灵:0
    豚金:0
    阅读权限:25
    注册时间:2016-9-11
    状态: 不在线

  • TA的每日心情
    开心

    签到天数: 447天[LV.Master]伴坛终老

  • 杀了我吧cc 发表于 2019-3-5 12:22:24 |显示全部楼层
    本帖最后由 杀了我吧cc 于 2019-3-5 13:21 编辑

    请问用 XLD 分轨后,演唱者为何全部变成了专辑歌手 SawanoHiroyuki[nZk] 而不是单曲歌手?



    另外对比泽野的官方试听版发现,第 8 首和第 11 首歌名好像有点问题

    SawanoHiroyuki[nZk] 第3张专辑《R∃/MEMBER》所有歌曲的试聴版已公开!  
    SawanoHiroyuki[nZk]  3rd album「R∃/MEMBER」 2019.3.6 on sale
    M01 「Glory-into the RM-」by SawanoHiroyuki[nZk]:SUGIZO
    M02 「EVERCHiLD」by SawanoHiroyuki[nZk]:Akihito Okano(ポルノグラフィティ)
    M03 「never gonna change」by SawanoHiroyuki[nZk]:スキマスイッチ
    M04 「narrative」by SawanoHiroyuki[nZk]:LiSA
    M05 「i-mage」by SawanoHiroyuki[nZk]:Aimer
    M06 「NOISEofRAIN」by SawanoHiroyuki[nZk]:Takanori Nishikawa
    M07 「Binary Star」by SawanoHiroyuki[nZk]:Uru
    M08 「ME & CREED <nZkv>」by SawanoHiroyuki[nZk]:さユり
    M09 「Unti-L」by SawanoHiroyuki[nZk]:ASCA
    M10 「Cage」by SawanoHiroyuki[nZk]:Tielle
    M11 「REMEMBER」


    原盘的 ID3 信息就是这样的吗
    それはいけません!ハレンチです!ケダモノです!

    使用道具 举报

    阳朔的海角

    梦幻天使
    UID:1729823
    精华:0
    主题:0
    帖子:113
    威望:418
    天使币:1387
    宣传度:50
    天然°:10
    腹黑°:0
    精灵:0
    豚金:0
    阅读权限:130
    注册时间:2018-4-16
    状态: 在线

  • TA的每日心情
    开心

    签到天数: 96天[LV.6]常住居民II

  • 阳朔的海角 发表于 2019-3-5 12:22:57 |显示全部楼层
    感谢大佬分享

    使用道具 举报

    杀了我吧cc

    LEVEL 2 升华
    UID:1560122
    精华:0
    主题:2
    帖子:527
    威望:715
    天使币:4619
    宣传度:5
    天然°:5
    腹黑°:5
    精灵:0
    豚金:0
    阅读权限:25
    注册时间:2016-9-11
    状态: 不在线

  • TA的每日心情
    开心

    签到天数: 447天[LV.Master]伴坛终老

  • 杀了我吧cc 发表于 2019-3-5 12:27:11 |显示全部楼层
    本帖最后由 杀了我吧cc 于 2019-3-5 12:38 编辑
    迪卢木多 发表于 2019-3-5 11:50
    我的第一反应: 哇 好多新后宫 さユり倒是听过几个 诶 这个Nishikawa是哪儿来的新人? ...


    西川貴教,东离剑游记2 OP 和泽野合作过
    それはいけません!ハレンチです!ケダモノです!

    使用道具 举报

    无峰帝神锋

    LEVEL 1 断罪
    UID:1305729
    精华:0
    主题:0
    帖子:121
    威望:148
    天使币:483
    宣传度:0
    天然°:0
    腹黑°:0
    精灵:0
    豚金:0
    阅读权限:15
    注册时间:2015-7-24
    状态: 不在线

  • TA的每日心情
    擦汗

    签到天数: 81天[LV.6]常住居民II

  • 无峰帝神锋 发表于 2019-3-5 12:43:47 |显示全部楼层
    感谢大佬分享,第一时间就下了

    使用道具 举报

    fronter

    见习天使
    UID:1288769
    精华:0
    主题:1
    帖子:11
    威望:19
    天使币:4
    宣传度:0
    天然°:0
    腹黑°:0
    精灵:0
    豚金:0
    阅读权限:10
    注册时间:2015-6-27
    状态: 不在线

  • TA的每日心情
    开心

    签到天数: 2天[LV.1]初来乍到

  • fronter 发表于 2019-3-5 12:54:16 来自手机 |显示全部楼层
    谢谢大佬

    使用道具 举报

    您需要登录后才可以回帖 登录 | 注册

    加天使同城QQ群,有威望奖励~

    回顶部